<?xml version="1.0" standalone="no"?>
<!DOCTYPE svg PUBLIC "-//W3C//DTD SVG 1.1//EN" "http://www.w3.org/Graphics/SVG/1.1/DTD/svg11.dtd" >
<svg xmlns="http://www.w3.org/2000/svg">
<metadata>
This is a custom SVG webfont generated by Font Squirrel.
Copyright   :  1990 2002 Adobe Systems Incorporated All rights reserved
Designer    : Linotype Staff
Foundry URL : httpwwwadobecomtype
</metadata>
<defs>
<font id="HelveticaNeueLTStd47LtCn" horiz-adv-x="872" >
<font-face units-per-em="2048" ascent="1462" descent="-586" />
<missing-glyph horiz-adv-x="491" />
<glyph unicode="fi" d="M14 985v102h150v130q0 129 47 195.5t190 66.5q45 0 78 -6v-103q-29 6 -59 6q-70 0 -101.5 -34.5t-31.5 -124.5v-130h192v-102h-192v-985h-123v985h-150zM623 0v1087h122v-1087h-122zM623 1253v209h122v-209h-122z" />
<glyph unicode="fl" d="M14 985v102h150v130q0 129 47 195.5t190 66.5q45 0 78 -6v-103q-29 6 -59 6q-70 0 -101.5 -34.5t-31.5 -124.5v-130h192v-102h-192v-985h-123v985h-150zM623 0v1462h122v-1462h-122z" />
<glyph unicode=" "  horiz-adv-x="491" />
<glyph unicode="&#x09;" horiz-adv-x="491" />
<glyph unicode="&#xa0;" horiz-adv-x="491" />
<glyph unicode="!" horiz-adv-x="491" d="M176 0v209h139v-209h-139zM176 999v463h139v-463l-24 -618h-90z" />
<glyph unicode="&#x22;" horiz-adv-x="720" d="M145 971v491h123v-491h-123zM453 971v491h122v-491h-122z" />
<glyph unicode="#" horiz-adv-x="983" d="M6 463v90h238l41 319h-226v91h238l61 462h103l-62 -462h250l62 462h102l-61 -462h225v-91h-238l-41 -319h226v-90h-238l-61 -463h-103l62 463h-250l-62 -463h-102l61 463h-225zM346 553h250l41 319h-250z" />
<glyph unicode="$" horiz-adv-x="983" d="M59 399v41h131v-53q0 -131 67 -212t192 -89v602q-84 25 -136.5 47.5t-112 64.5t-88 110.5t-28.5 162.5q0 160 96 261.5t269 115.5v145h90v-145q346 -27 346 -389h-131q0 254 -215 278v-559q59 -20 81.5 -27.5t75 -29t75 -37.5t59 -47t52 -63.5t29 -79.5t13.5 -103 q0 -188 -102.5 -294.5t-282.5 -123.5v-170h-90v170q-390 23 -390 424zM215 1085q0 -113 61.5 -174t172.5 -100v528q-111 -12 -172.5 -82t-61.5 -172zM539 86q117 12 185.5 85t68.5 202q0 117 -64.5 177t-189.5 107v-571z" />
<glyph unicode="%" horiz-adv-x="1478" d="M109 1073q0 213 63.5 295t194.5 82t194.5 -82t63.5 -295t-63.5 -295t-194.5 -82t-194.5 82t-63.5 295zM219 1073q0 -287 147.5 -287t147.5 287t-147.5 287t-147.5 -287zM373 -25l628 1475h103l-629 -1475h-102zM854 352q0 213 63.5 295t194.5 82t194.5 -82t63.5 -295 t-63.5 -295t-194.5 -82t-194.5 82t-63.5 295zM965 352.5q0 -286.5 147.5 -286.5t147.5 286.5t-147.5 286.5t-147.5 -286.5z" />
<glyph unicode="&#x26;" horiz-adv-x="1099" d="M45 362q0 215 211 377l121 92q-168 221 -168 361q0 127 86 198.5t213 71.5t203.5 -74.5t76.5 -195.5q0 -96 -55 -184t-203 -193l316 -442q49 121 53 276h123q0 -197 -102 -379l192 -270h-139l-129 178q-135 -203 -389 -203q-184 0 -297 110.5t-113 276.5zM176 377 q0 -127 86 -209t211 -82q92 0 178 51t129 133l-342 480q-145 -102 -203.5 -190.5t-58.5 -182.5zM332 1196q0 -113 137 -297q197 150 197 297q0 70 -47.5 117t-119 47t-119.5 -47t-48 -117z" />
<glyph unicode="'" horiz-adv-x="491" d="M184 971v491h123v-491h-123z" />
<glyph unicode="(" horiz-adv-x="454" d="M111 543q0 475 272 919h88q-238 -414 -238 -919.5t238 -919.5h-88q-272 445 -272 920z" />
<glyph unicode=")" horiz-adv-x="454" d="M-16 -377q238 414 237.5 920t-237.5 919h88q272 -444 272 -919t-272 -920h-88z" />
<glyph unicode="*" horiz-adv-x="684" d="M53 1219l27 86l217 -70v227h90v-227l217 70l27 -86l-215 -70l133 -184l-74 -54l-133 185l-133 -185l-74 54l133 184z" />
<glyph unicode="+" horiz-adv-x="1228" d="M96 467v102h467v467h103v-467h467v-102h-467v-467h-103v467h-467z" />
<glyph unicode="," horiz-adv-x="491" d="M164 -201q70 43 72 201h-60v209h139v-209q0 -227 -151 -283v82z" />
<glyph unicode="-" horiz-adv-x="681" d="M119 526v111h444v-111h-444z" />
<glyph unicode="." horiz-adv-x="491" d="M176 0v209h139v-209h-139z" />
<glyph unicode="/" horiz-adv-x="569" d="M-20 -25l499 1512h111l-500 -1512h-110z" />
<glyph unicode="0" horiz-adv-x="983" d="M84 713q0 172 17.5 298t61.5 229t126 156.5t202.5 53.5t202.5 -53.5t126 -156.5t61.5 -229t17.5 -298t-17.5 -298t-61.5 -229.5t-126 -157t-202.5 -53.5t-202.5 53.5t-126 157t-61.5 229.5t-17.5 298zM215 713q0 -346 63.5 -490.5t213 -144.5t213 144.5t63.5 490.5 t-63.5 490.5t-213 144.5t-213 -144.5t-63.5 -490.5z" />
<glyph unicode="1" horiz-adv-x="983" d="M139 1110v90q346 2 361 250h94v-1450h-123v1110h-332z" />
<glyph unicode="2" horiz-adv-x="983" d="M90 0q0 172 74 300t229 259l156 131q109 92 155 174t46 187q0 141 -71 219t-185 78q-254 0 -267 -353h-131q4 215 106.5 335t303.5 120q160 0 267.5 -99.5t107.5 -293.5q0 -135 -51.5 -234.5t-188.5 -212.5l-158 -129q-121 -100 -179 -181t-75 -189h664v-111h-803z" />
<glyph unicode="3" horiz-adv-x="983" d="M78 387h131q0 -135 70.5 -222t203.5 -87q123 0 204 82t81 252q0 139 -78 214.5t-211 75.5h-96v103h68q131 0 202.5 70.5t71.5 199.5t-61.5 201t-178.5 72q-115 0 -184.5 -76t-71.5 -223h-131q0 186 99.5 293.5t287.5 107.5q168 0 269.5 -96.5t101.5 -261.5 q0 -125 -59.5 -212t-173.5 -116v-4q127 -18 201.5 -113.5t74.5 -230.5q0 -201 -107.5 -321t-308.5 -120q-188 0 -292.5 105.5t-112.5 306.5z" />
<glyph unicode="4" horiz-adv-x="983" d="M66 373v123l559 954h123v-967h170v-110h-170v-373h-123v373h-559zM176 483h449v758h-4z" />
<glyph unicode="5" horiz-adv-x="983" d="M84 371h131q0 -127 70.5 -210t197.5 -83q133 0 209 107.5t76 308.5q0 160 -71.5 258t-211.5 98q-86 0 -153.5 -42t-95.5 -126h-123l84 743h634v-110h-536l-64 -506l5 -4q39 76 115.5 111.5t164.5 35.5q174 0 278.5 -122.5t104.5 -356.5q0 -225 -111.5 -361.5 t-318.5 -136.5q-172 0 -278.5 105t-106.5 291z" />
<glyph unicode="6" horiz-adv-x="983" d="M78 674q0 188 20.5 323.5t69.5 240.5t137 158.5t215 53.5q168 0 259 -93t95 -247h-131q-4 109 -64.5 173.5t-164.5 64.5q-154 0 -227.5 -154t-77.5 -506l4 -4q35 113 116 175.5t195 62.5q184 0 282.5 -123t98.5 -328q0 -219 -102.5 -357.5t-300.5 -138.5 q-236 0 -330 169.5t-94 529.5zM233 448.5q0 -157.5 66 -264t205 -106.5t204.5 106.5t65.5 264t-65.5 264t-204.5 106.5t-205 -106.5t-66 -264z" />
<glyph unicode="7" horiz-adv-x="983" d="M84 1315v110h815v-110q-221 -272 -358.5 -636t-161.5 -679h-139q16 301 169.5 679t366.5 636h-692z" />
<glyph unicode="8" horiz-adv-x="983" d="M84 410q0 137 67.5 241.5t194.5 116.5v4q-102 27 -160.5 119t-58.5 201q0 172 100.5 265t264.5 93q166 0 265 -92t99 -266q0 -111 -57.5 -202t-161.5 -118v-4q127 -12 194.5 -116.5t67.5 -241.5q0 -203 -111.5 -319t-296 -116t-296 116t-111.5 319zM215 399 q0 -137 71.5 -229t205 -92t205 92t71.5 229q0 139 -71.5 231.5t-205 92.5t-205 -92.5t-71.5 -231.5zM258 1085q0 -119 60.5 -189.5t173.5 -70.5q115 0 174 71t59 189q0 121 -59.5 192t-174 71t-174 -71t-59.5 -192z" />
<glyph unicode="9" horiz-adv-x="983" d="M78 954q0 219 102.5 357.5t300.5 138.5q236 0 330 -169t94 -529q0 -188 -20.5 -323.5t-69.5 -241t-137 -159t-215 -53.5q-168 0 -259 93.5t-95 246.5h131q4 -109 64.5 -173t164.5 -64q154 0 227.5 153.5t77.5 505.5l-4 4q-35 -113 -116 -175t-195 -62 q-184 0 -282.5 122.5t-98.5 327.5zM209 977q0 -158 65.5 -264.5t204.5 -106.5t205 106.5t66 264.5t-66 264.5t-205 106.5t-204.5 -106.5t-65.5 -264.5z" />
<glyph unicode=":" horiz-adv-x="491" d="M176 0v209h139v-209h-139zM176 817v209h139v-209h-139z" />
<glyph unicode=";" horiz-adv-x="491" d="M164 -201q70 43 72 201h-60v209h139v-209q0 -227 -151 -283v82zM176 817v209h139v-209h-139z" />
<glyph unicode="&#x3c;" horiz-adv-x="1228" d="M96 463v110l1037 480v-111l-914 -424l914 -424v-110z" />
<glyph unicode="=" horiz-adv-x="1228" d="M96 268v103h1037v-103h-1037zM96 666v102h1037v-102h-1037z" />
<glyph unicode="&#x3e;" horiz-adv-x="1228" d="M96 -16v110l914 424l-914 424v111l1037 -480v-110z" />
<glyph unicode="?" d="M49 1040q2 201 99.5 324t285.5 123q170 0 269.5 -98.5t99.5 -260.5q0 -180 -133 -321l-88 -94q-63 -68 -89 -127.5t-26 -149.5v-57h-123v72q0 113 27.5 178t107.5 149l86 92q106 115 107 260q0 111 -63.5 182.5t-166.5 71.5q-262 0 -262 -344h-131zM336 0v209h139v-209 h-139z" />
<glyph unicode="@" horiz-adv-x="1638" d="M63 731q0 313 233.5 534.5t563.5 221.5q301 0 508 -179.5t207 -449.5q0 -227 -155.5 -403t-329.5 -176q-61 0 -101.5 34.5t-38.5 104.5h-4q-143 -139 -289 -139q-121 0 -195.5 80.5t-74.5 220.5q0 223 144.5 410.5t355.5 187.5q168 0 229 -170h4l51 135h117l-209 -602 q-27 -80 -26 -121q0 -51 55 -51q133 0 249 164.5t116 330.5q0 233 -182.5 383t-430.5 150q-297 0 -495.5 -196.5t-198.5 -469.5q0 -276 201.5 -470.5t492.5 -194.5q168 0 324.5 76.5t238.5 205.5h123q-104 -172 -290.5 -272.5t-395.5 -100.5q-336 0 -566.5 221.5 t-230.5 534.5zM498 590q0 -209 176 -209q152 0 265.5 170t113.5 328q0 100 -42 148t-134 48q-104 0 -194.5 -82t-137.5 -192.5t-47 -210.5z" />
<glyph unicode="A" horiz-adv-x="1024" d="M-2 0l432 1462h164l432 -1462h-139l-119 426h-512l-119 -426h-139zM285 537h454l-225 823h-4z" />
<glyph unicode="B" horiz-adv-x="1024" d="M115 0v1462h403q203 0 298 -97t95 -269q0 -113 -59 -202t-166 -116v-4q133 -27 202.5 -123t69.5 -241q0 -193 -117.5 -301.5t-324.5 -108.5h-401zM246 111h243q338 0 338 299t-338 299h-243v-598zM246 819h207q328 0 327 266q0 143 -73.5 205t-231.5 62h-229v-533z" />
<glyph unicode="C" horiz-adv-x="1062" d="M102 731q0 756 467 756q211 0 315.5 -128t104.5 -323h-131q0 154 -75.5 247t-213.5 93q-164 0 -250 -151.5t-86 -493.5t86.5 -493.5t249.5 -151.5q135 0 214 108.5t89 301.5h132q-14 -250 -126 -385.5t-309 -135.5q-467 0 -467 756z" />
<glyph unicode="D" horiz-adv-x="1099" d="M115 0v1462h352q305 0 417.5 -175t112.5 -556t-112.5 -556t-417.5 -175h-352zM246 111h213q221 0 314 135t93 483q0 352 -93 487.5t-314 135.5h-213v-1241z" />
<glyph unicode="E" horiz-adv-x="909" d="M115 0v1462h725v-110h-594v-533h555v-110h-555v-598h612v-111h-743z" />
<glyph unicode="F" d="M115 0v1462h725v-110h-594v-533h555v-110h-555v-709h-131z" />
<glyph unicode="G" horiz-adv-x="1099" d="M102 731q0 756 467 756q201 0 304.5 -117t115.5 -317h-131q0 139 -74.5 231t-214.5 92q-164 0 -250 -151.5t-86 -493.5t86.5 -493.5t249.5 -151.5q147 0 226 131t79 387v31h-346v110h469v-745h-102v242h-4q-33 -121 -122 -194t-200 -73q-467 0 -467 756z" />
<glyph unicode="H" horiz-adv-x="1062" d="M115 0v1462h131v-622h571v622h131v-1462h-131v729h-571v-729h-131z" />
<glyph unicode="I" horiz-adv-x="376" d="M123 0v1462h131v-1462h-131z" />
<glyph unicode="J" horiz-adv-x="833" d="M39 369v59h131v-35q0 -154 45 -230.5t150 -76.5q115 0 169 63.5t54 231.5v1081h131v-1095q0 -190 -88 -291t-260 -101q-162 0 -247 93.5t-85 300.5z" />
<glyph unicode="K" horiz-adv-x="983" d="M115 0v1462h131v-766h4l559 766h139l-446 -610l495 -852h-139l-438 741l-174 -229v-512h-131z" />
<glyph unicode="L" d="M115 0v1462h131v-1351h606v-111h-737z" />
<glyph unicode="M" horiz-adv-x="1404" d="M127 0v1462h227l353 -1298h4l352 1298h215v-1462h-131v1339h-4l-379 -1339h-123l-379 1339h-4v-1339h-131z" />
<glyph unicode="N" horiz-adv-x="1099" d="M115 0v1462h176l559 -1274h4v1274h131v-1462h-176l-559 1274h-4v-1274h-131z" />
<glyph unicode="O" horiz-adv-x="1138" d="M102 731q0 756 467 756t467 -756t-467 -756t-467 756zM233 731q0 -342 86.5 -493.5t250 -151.5t249.5 151.5t86 493.5t-86 493.5t-249.5 151.5t-250 -151.5t-86.5 -493.5z" />
<glyph unicode="P" horiz-adv-x="983" d="M115 0v1462h395q205 0 303 -109.5t98 -303.5q0 -186 -105.5 -300t-340.5 -114h-219v-635h-131zM246 745h223q141 0 226 72t85 231.5t-77.5 231.5t-233.5 72h-223v-607z" />
<glyph unicode="Q" horiz-adv-x="1138" d="M102 731q0 756 467 756t467 -756q0 -403 -133 -588l150 -143l-72 -78l-147 144q-104 -90 -265 -91q-467 0 -467 756zM233 731q0 -342 86.5 -493.5t249.5 -151.5q111 0 185 66l-166 159l71 78l158 -153q88 160 88 495q0 342 -86 493.5t-249.5 151.5t-250 -151.5 t-86.5 -493.5z" />
<glyph unicode="R" horiz-adv-x="1024" d="M115 0v1462h436q180 0 279.5 -97t99.5 -269q0 -143 -63.5 -243.5t-200.5 -127.5v-4q133 -12 189 -93t60 -253l5 -160q4 -152 61 -215h-154q-35 59 -39 205l-4 123q-6 199 -62 269.5t-228 70.5h-248v-668h-131zM246 778h225q158 0 243 73t85 214t-72 214t-242 73h-239 v-574z" />
<glyph unicode="S" horiz-adv-x="983" d="M57 410v43h131v-56q0 -143 75 -227t216 -84q145 0 230.5 75t85.5 222q0 88 -39 148.5t-101.5 92t-138.5 56.5t-151.5 52.5t-138 68.5t-101.5 116.5t-39 182.5q0 174 107.5 280.5t295.5 106.5q397 0 398 -400h-131q0 137 -65.5 213t-196.5 76q-129 0 -203 -74.5 t-74 -187.5q0 -78 31 -135t80 -88t113.5 -58.5t130 -45t130 -48t113.5 -68.5t80 -106.5t31 -161.5q0 -207 -119 -317.5t-324 -110.5q-207 0 -316.5 111t-109.5 324z" />
<glyph unicode="T" horiz-adv-x="909" d="M12 1352v110h885v-110h-377v-1352h-131v1352h-377z" />
<glyph unicode="U" horiz-adv-x="1024" d="M94 410v1052h131v-1050q0 -326 287 -326t287 326v1050h131v-1052q0 -225 -105.5 -330t-312.5 -105t-312.5 105t-105.5 330z" />
<glyph unicode="V" horiz-adv-x="946" d="M6 1462h139l326 -1323h4l326 1323h139l-385 -1462h-164z" />
<glyph unicode="W" horiz-adv-x="1478" d="M23 1462h131l256 -1286h4l250 1286h151l250 -1286h4l256 1286h131l-309 -1462h-164l-242 1286h-4l-241 -1286h-164z" />
<glyph unicode="X" horiz-adv-x="946" d="M-2 0l401 745l-374 717h139l311 -594l316 594h131l-377 -717l403 -745h-139l-340 629l-340 -629h-131z" />
<glyph unicode="Y" horiz-adv-x="909" d="M-6 1462h139l322 -729l321 729h139l-395 -876v-586h-131v586z" />
<glyph unicode="Z" horiz-adv-x="946" d="M45 0v123l713 1229h-672v110h805v-123l-701 -1228h711v-111h-856z" />
<glyph unicode="[" horiz-adv-x="493" d="M170 -377v1839h324v-102h-201v-1634h201v-103h-324z" />
<glyph unicode="\" horiz-adv-x="569" d="M-20 1487h110l500 -1512h-111z" />
<glyph unicode="]" horiz-adv-x="493" d="M0 -274h201v1634h-201v102h324v-1839h-324v103z" />
<glyph unicode="^" horiz-adv-x="1228" d="M90 498l473 927h103l473 -927h-111l-414 805l-413 -805h-111z" />
<glyph unicode="_" horiz-adv-x="1024" d="M0 -154h1024v-102h-1024v102z" />
<glyph unicode="`" horiz-adv-x="380" d="M-20 1511h145l154 -288h-99z" />
<glyph unicode="a" d="M61 283q0 240 220 301l231 65q66 18 85 49t19 123q0 188 -188 189q-209 0 -209 -246h-123q0 348 336 348q307 0 307 -289v-643q0 -90 64 -90h35v-90q-35 -12 -58 -12q-80 0 -118.5 27.5t-38.5 107.5v37h-5q-63 -184 -280 -185q-139 0 -208 81.5t-69 226.5zM193 291 q0 -96 46 -154.5t126 -58.5q115 0 183 82t68 225v229h-4q-14 -43 -131 -71l-102 -27q-94 -25 -140 -78t-46 -147z" />
<glyph unicode="b" horiz-adv-x="909" d="M106 0v1462h123v-538h4q20 88 87 138t167 50q348 0 349 -567q0 -569 -349 -570q-96 0 -168.5 55.5t-97.5 149.5h-4v-180h-111zM229 544.5q0 -145.5 18.5 -242.5t54.5 -143t74 -63.5t91 -17.5q51 0 89 17.5t75 63.5t55.5 143t18.5 243q0 143 -18.5 240.5t-54.5 143.5 t-75 63.5t-90 17.5q-53 0 -91 -17.5t-74 -63.5t-54.5 -142.5t-18.5 -242z" />
<glyph unicode="c" horiz-adv-x="833" d="M61 545q0 281 96.5 424t278.5 143q154 0 240 -90t96 -258h-123q-10 127 -62 186.5t-151 59.5q-115 0 -179 -100.5t-64 -366.5q0 -119 13 -206t34.5 -135t53.5 -78t61.5 -38t68.5 -8q195 0 225 282h123q-14 -176 -105.5 -280.5t-240.5 -104.5q-365 1 -365 570z" />
<glyph unicode="d" horiz-adv-x="909" d="M74 545q0 567 348 567q100 0 166.5 -50t87.5 -138h4v538h123v-1462h-111v180h-4q-25 -94 -97.5 -149.5t-168.5 -55.5q-348 1 -348 570zM205 545q0 -145 18.5 -242.5t55 -143.5t74.5 -63.5t89 -17.5q53 0 91 17.5t74 63.5t54.5 143t18.5 242.5t-18.5 242t-54.5 142.5 t-73.5 63.5t-91.5 17.5q-51 0 -90 -17.5t-74.5 -63.5t-54 -143.5t-18.5 -240.5z" />
<glyph unicode="e" d="M74 545q0 281 96 424t279 143q180 0 265 -128t85 -400v-45h-594v-52q0 -219 64.5 -314t166.5 -95q199 0 230 282h122q-14 -176 -106 -280.5t-244 -104.5q-364 1 -364 570zM205 641h463q-2 199 -58.5 284t-173.5 85t-173 -85t-58 -284z" />
<glyph unicode="f" horiz-adv-x="493" d="M14 985v102h150v130q0 129 47 195.5t190 66.5q45 0 78 -6v-103q-29 6 -59 6q-70 0 -101.5 -34.5t-31.5 -124.5v-130h192v-102h-192v-985h-123v985h-150z" />
<glyph unicode="g" horiz-adv-x="909" d="M74 545q0 567 348 567q90 0 157.5 -50t96.5 -142h4v167h111v-1009q0 -455 -357 -455q-154 0 -237.5 73t-85.5 193h122q0 -74 60.5 -118.5t144.5 -44.5q113 0 171.5 75.5t58.5 221.5v172h-4q-29 -96 -97.5 -145.5t-156.5 -49.5q-147 0 -241.5 123t-94.5 422zM205 557 q0 -250 58.5 -352.5t173 -102.5t173 102.5t58.5 352.5q0 248 -58.5 350.5t-173 102.5t-173 -102.5t-58.5 -350.5z" />
<glyph unicode="h" horiz-adv-x="909" d="M119 0v1462h123v-526h4q23 82 95.5 129t170.5 47q131 0 205 -71.5t74 -219.5v-821h-123v786q0 223 -187 224q-109 0 -174 -77t-65 -202v-731h-123z" />
<glyph unicode="i" horiz-adv-x="376" d="M127 0v1087h123v-1087h-123zM127 1253v209h123v-209h-123z" />
<glyph unicode="j" horiz-adv-x="376" d="M-53 -268q43 -6 47 -6q70 0 101.5 39.5t31.5 148.5v1173h123v-1214q0 -250 -236 -250q-37 0 -67 6v103zM127 1253v209h123v-209h-123z" />
<glyph unicode="k" horiz-adv-x="833" d="M106 0v1462h123v-915h4l422 540h152l-328 -403l387 -684h-151l-324 573l-162 -192v-381h-123z" />
<glyph unicode="l" horiz-adv-x="376" d="M127 0v1462h123v-1462h-123z" />
<glyph unicode="m" horiz-adv-x="1404" d="M127 0v1087h111v-151h4q84 176 276 176q96 0 155.5 -52t71.5 -138h5q78 190 276 190q119 0 185.5 -69.5t66.5 -211.5v-831h-123v813q0 197 -170 197q-94 0 -157.5 -78t-63.5 -201v-731h-123v813q0 197 -170 197q-94 0 -157.5 -78t-63.5 -201v-731h-123z" />
<glyph unicode="n" horiz-adv-x="909" d="M119 0v1087h110v-151h4q90 176 279 176q131 0 205 -71.5t74 -219.5v-821h-123v786q0 223 -187 224q-109 0 -174 -77t-65 -202v-731h-123z" />
<glyph unicode="o" d="M61 544.5q0 280.5 96.5 424t278.5 143.5t278.5 -143.5t96.5 -424t-96.5 -425t-278.5 -144.5t-278.5 144.5t-96.5 425zM193 545q0 -467 243.5 -467t243.5 467q0 465 -243.5 465t-243.5 -465z" />
<glyph unicode="p" horiz-adv-x="909" d="M106 -360v1447h111v-155h4q31 80 99.5 130t168.5 50q178 0 262.5 -141.5t84.5 -427.5q0 -567 -349 -568q-100 0 -166.5 50.5t-87.5 138.5h-4v-524h-123zM229 543q0 -145 18.5 -241.5t54.5 -142.5t74 -63.5t91 -17.5q51 0 90 17.5t75 63.5t54.5 143t18.5 241 q0 270 -63.5 368.5t-170 98.5t-172.5 -97q-70 -98 -70 -370z" />
<glyph unicode="q" horiz-adv-x="909" d="M74 543q0 287 84 428t262 141q100 0 168.5 -50t99.5 -130h4v155h111v-1447h-123v524h-4q-20 -88 -87 -138.5t-167 -50.5q-348 1 -348 568zM205 543q0 -143 18.5 -240.5t54 -143.5t74.5 -63.5t90 -17.5q53 0 91 17.5t74 63.5t54.5 142t18.5 242q0 272 -70 370 q-66 96 -172 96.5t-169.5 -98t-63.5 -368.5z" />
<glyph unicode="r" horiz-adv-x="569" d="M119 0v1087h123v-169h4q35 92 107.5 143t166.5 51q20 0 43 -6v-123q-31 6 -59 6q-111 0 -186.5 -80t-75.5 -229v-680h-123z" />
<glyph unicode="s" horiz-adv-x="796" d="M63 313v35h123v-29q0 -242 209 -241q98 0 156.5 52t58.5 142q0 74 -33.5 122t-113.5 79l-172 68q-209 80 -209 258q0 160 88 236.5t236 76.5q299 0 299 -303v-31h-123v31q0 201 -179 201q-199 0 -198 -185q0 -63 30.5 -106t116.5 -76l178 -68q203 -76 203 -276 q0 -145 -85 -234.5t-251 -89.5q-172 0 -253 79t-81 259z" />
<glyph unicode="t" horiz-adv-x="493" d="M14 985v102h150v302h123v-302h192v-102h-192v-780q0 -63 27.5 -89t88.5 -26q35 0 76 12v-102q-20 -12 -86 -12q-127 0 -178 41t-51 149v807h-150z" />
<glyph unicode="u" horiz-adv-x="909" d="M119 266v821h123v-765q0 -131 45 -187.5t143 -56.5q104 0 171 76.5t67 201.5v731h123v-1087h-111v152h-4q-90 -176 -279 -177q-131 0 -204.5 72t-73.5 219z" />
<glyph unicode="v" horiz-adv-x="757" d="M14 1087h131l242 -948h4l221 948h131l-286 -1087h-140z" />
<glyph unicode="w" horiz-adv-x="1212" d="M20 1087h132l184 -964h4l197 964h151l184 -964h5l184 964h131l-242 -1087h-145l-197 965h-4l-196 -965h-146z" />
<glyph unicode="x" horiz-adv-x="757" d="M12 0l293 561l-280 526h139l215 -430l215 430h139l-280 -526l292 -561h-139l-227 467l-227 -467h-140z" />
<glyph unicode="y" horiz-adv-x="757" d="M14 1087h131l244 -942h4l219 942h131l-317 -1175q-43 -160 -103.5 -216t-185.5 -56q-33 0 -82 4v102q53 -4 80 -4q59 0 98 31.5t64 113.5l31 103z" />
<glyph unicode="z" horiz-adv-x="720" d="M37 0v102l516 883h-490v102h621v-102l-516 -883h516v-102h-647z" />
<glyph unicode="{" horiz-adv-x="493" d="M68 492v102q68 2 93 56.5t25 207.5v359q0 246 220 245h104v-102h-102q-98 0 -99 -139v-381q2 -266 -139 -295v-4q141 -29 139 -295v-381q0 -139 99 -139h102v-103h-104q-219 0 -220 246v358q0 154 -25 208.5t-93 56.5z" />
<glyph unicode="|" horiz-adv-x="454" d="M176 -25v1512h103v-1512h-103z" />
<glyph unicode="}" horiz-adv-x="493" d="M-16 -274h102q98 0 98 139v381q-2 266 140 295v4q-141 29 -140 295v381q0 139 -98 139h-102v102h104q219 0 219 -245v-359q0 -154 25.5 -208t93.5 -56v-102q-68 -2 -93.5 -56.5t-25.5 -208.5v-358q0 -246 -219 -246h-104v103z" />
<glyph unicode="~" horiz-adv-x="1228" d="M141 463q92 176 256 176q78 0 228 -66q168 -74 209 -73q47 0 89 34.5t91 112.5l73 -74q-70 -96 -124 -136t-132 -40q-86 0 -208 68q-131 72 -235.5 72t-172.5 -148z" />
<glyph unicode="&#xa1;" horiz-adv-x="491" d="M176 111l25 618h90l24 -618v-463h-139v463zM176 901v209h139v-209h-139z" />
<glyph unicode="&#xa2;" horiz-adv-x="983" d="M135 545q0 266 88 409.5t252 157.5v170h62v-170q143 -8 222 -98t89 -250h-123q-18 227 -188 246v-932q162 35 188 282h123q-12 -164 -94 -267t-217 -118v-170h-62v170q-340 19 -340 570zM266 543q0 -137 16.5 -231.5t48 -142.5t65.5 -67.5t79 -23.5v932 q-98 -14 -153.5 -117.5t-55.5 -349.5z" />
<glyph unicode="&#xa3;" horiz-adv-x="983" d="M41 88q119 86 187.5 192.5t68.5 217.5q0 84 -43 170h-201v90h166l-69 133q-53 102 -54 196q0 168 119 265.5t295 97.5q186 0 292.5 -114.5t106.5 -303.5h-123q-16 315 -284 316q-119 0 -197 -67t-78 -181q0 -100 82 -250l49 -92h310v-90h-275q35 -55 35 -150 q0 -219 -240 -407l5 -5q98 49 159 50q10 0 140 -37q111 -33 149 -33q100 0 246 102l55 -94q-129 -119 -317 -119q-51 0 -161 39t-163 39q-74 0 -197 -65z" />
<glyph unicode="&#xa4;" horiz-adv-x="983" d="M41 713q0 158 100 280l-96 97l72 73l96 -96q123 96 279 96q160 0 280 -98l96 98l72 -73l-96 -97q98 -121 98 -280q0 -156 -96 -279l94 -96l-72 -76l-96 100q-123 -100 -280.5 -100t-280.5 98l-94 -98l-72 76l96 96q-100 123 -100 279zM152 712.5q0 -147.5 102 -247.5 t237.5 -100t237.5 100t102 247.5t-102 248t-237.5 100.5t-237.5 -100.5t-102 -248z" />
<glyph unicode="&#xa5;" horiz-adv-x="983" d="M31 1425h139l322 -704l321 704h139l-331 -710h223v-90h-264l-23 -50v-129h287v-90h-287v-356h-131v356h-287v90h287v129l-23 50h-264v90h223z" />
<glyph unicode="&#xa6;" horiz-adv-x="454" d="M176 -25v553h103v-553h-103zM176 934v553h103v-553h-103z" />
<glyph unicode="&#xa7;" horiz-adv-x="985" d="M72 690q0 88 62.5 168t148.5 113q-127 90 -127 229q0 133 99 210t247 77q154 0 240.5 -84t86.5 -221h-122q0 92 -58.5 147t-152.5 55q-92 0 -150.5 -51t-58.5 -127q0 -53 34.5 -97t122.5 -101l271 -177q111 -72 154.5 -139t43.5 -164q0 -90 -54 -166.5t-138 -117.5 q123 -98 123 -242q0 -135 -91 -222t-249 -87q-160 0 -257 88t-97 223v41h122q0 -115 56.5 -182.5t171.5 -67.5q94 0 153.5 53.5t59.5 133.5q0 72 -38 124t-132 111l-246 158q-123 80 -174 148.5t-51 166.5zM195 698q0 -106 172 -219l270 -176q154 72 154 232q0 100 -138 190 l-293 190q-165 -90 -165 -217z" />
<glyph unicode="&#xa8;" horiz-adv-x="380" d="M-25 1266v209h123v-209h-123zM283 1266v209h123v-209h-123z" />
<glyph unicode="&#xa9;" horiz-adv-x="1638" d="M63 731q0 313 221.5 534.5t535 221.5t534.5 -221.5t221 -534.5t-221 -534.5t-534.5 -221.5t-535 221.5t-221.5 534.5zM166 731q0 -270 191.5 -461.5t462 -191.5t462 191.5t191.5 461.5t-191.5 461.5t-462 191.5t-462 -191.5t-191.5 -461.5zM387 731q0 211 121 344 t330 133q154 0 261 -83t128 -230h-111q-20 92 -94 151.5t-184 59.5q-162 0 -251 -105.5t-89 -269.5q0 -154 94 -265.5t252 -111.5q106 0 180 62.5t92 158.5h111q-35 -145 -138.5 -234t-244.5 -89q-205 0 -331 136t-126 343z" />
<glyph unicode="&#xaa;" horiz-adv-x="567" d="M10 944q0 154 162 195l152 39q41 10 54 27.5t13 62.5t-33.5 68.5t-89.5 23.5q-68 0 -101.5 -35t-33.5 -92h-102q0 109 56 163t183 54q223 0 224 -174v-379q0 -55 41 -55h22v-78q-29 -12 -70 -12q-92 0 -92 82v28h-4q-39 -111 -182 -110q-96 0 -147.5 54t-51.5 138z M121 956q0 -49 29.5 -81.5t76.5 -32.5q74 0 119 48t45 132v106h-4q-8 -23 -84 -43l-67 -16q-115 -29 -115 -113z" />
<glyph unicode="&#xab;" horiz-adv-x="757" d="M117 520v123l256 285v-140l-183 -206l183 -207v-139zM385 520v123l256 285v-140l-182 -206l182 -207v-139z" />
<glyph unicode="&#xac;" horiz-adv-x="1228" d="M96 666v102h1037v-547h-103v445h-934z" />
<glyph unicode="&#xad;" horiz-adv-x="681" d="M119 526v111h444v-111h-444z" />
<glyph unicode="&#xae;" horiz-adv-x="1638" d="M63 731q0 313 221.5 534.5t535 221.5t534.5 -221.5t221 -534.5t-221 -534.5t-534.5 -221.5t-535 221.5t-221.5 534.5zM166 731q0 -270 191.5 -461.5t462 -191.5t462 191.5t191.5 461.5t-191.5 461.5t-462 191.5t-462 -191.5t-191.5 -461.5zM535 283v899h346 q293 0 293 -250q0 -211 -226 -250l266 -399h-122l-267 399h-188v-399h-102zM637 772h221q213 -4 213 162q0 158 -213 158h-221v-320z" />
<glyph unicode="&#xaf;" horiz-adv-x="380" d="M-53 1323v90h487v-90h-487z" />
<glyph unicode="&#xb0;" horiz-adv-x="819" d="M117 1157q0 121 86 207t206.5 86t206.5 -86t86 -207t-86 -207t-206.5 -86t-206.5 86t-86 207zM207 1157q0 -84 59.5 -143.5t143.5 -59.5t143 59.5t59 143.5t-59 143.5t-143 59.5t-143.5 -59.5t-59.5 -143.5z" />
<glyph unicode="&#xb1;" horiz-adv-x="1228" d="M96 0v102h1037v-102h-1037zM96 582v102h467v352h103v-352h467v-102h-467v-353h-103v353h-467z" />
<glyph unicode="&#xb2;" horiz-adv-x="638" d="M49 1174q4 276 281 276q113 0 184.5 -58.5t71.5 -177.5q0 -84 -31 -143t-119 -125l-102 -76q-143 -104 -168 -206h424v-91h-535q0 106 47.5 183.5t149.5 158.5l100 80q70 53 96.5 102.5t26.5 112.5q0 74 -43 112t-110 38q-72 0 -115 -48t-47 -138h-111z" />
<glyph unicode="&#xb3;" horiz-adv-x="638" d="M41 809h111q2 -61 46 -110.5t117 -49.5q68 0 120 45t52 129q0 76 -51 119t-137 43h-55v90h37q82 0 130 39t48 103q0 61 -39 102t-105 41q-63 0 -107 -41t-46 -111h-111q0 113 66.5 177.5t197.5 64.5q119 0 186.5 -57.5t67.5 -157.5q0 -76 -38.5 -129t-112.5 -70v-4 q84 -10 132 -67.5t48 -139.5q0 -123 -71.5 -194.5t-211.5 -71.5q-264 0 -274 250z" />
<glyph unicode="&#xb4;" horiz-adv-x="380" d="M102 1223l154 288h145l-200 -288h-99z" />
<glyph unicode="&#xb5;" horiz-adv-x="909" d="M119 -360v1447h123v-765q0 -131 45 -187.5t143 -56.5q104 0 171 76.5t67 201.5v731h123v-1087h-111v152h-4q-90 -176 -279 -177q-119 0 -151 50h-4v-385h-123z" />
<glyph unicode="&#xb6;" horiz-adv-x="985" d="M61 1057q0 193 106.5 299t281.5 106h372v-1745h-102v1655h-219v-1655h-103v967q-137 0 -236.5 109.5t-99.5 263.5z" />
<glyph unicode="&#xb7;" horiz-adv-x="491" d="M133 672q0 45 34 78.5t79 33.5t78.5 -33.5t33.5 -78.5t-33.5 -79t-78.5 -34t-79 34t-34 79z" />
<glyph unicode="&#xb8;" horiz-adv-x="380" d="M4 -377l25 64q61 -31 123 -31q70 0 105.5 25.5t35.5 64.5q0 37 -32 55.5t-77 18.5q-57 0 -90 -21l-26 35l116 166h76l-88 -115l4 -2q23 10 70 11q66 0 111.5 -40t45.5 -98q0 -80 -68.5 -127t-148.5 -47q-100 0 -182 41z" />
<glyph unicode="&#xb9;" horiz-adv-x="638" d="M74 1229v74q229 2 239 147h93v-877h-111v656h-221z" />
<glyph unicode="&#xba;" horiz-adv-x="567" d="M18 1102q0 348 265 348q266 0 266 -348q0 -350 -266 -350q-265 0 -265 350zM129 1102q0 -133 43 -196.5t111 -63.5q70 0 112.5 63.5t42.5 196.5t-43 195.5t-112 62.5q-68 0 -111 -63.5t-43 -194.5z" />
<glyph unicode="&#xbb;" horiz-adv-x="757" d="M117 236v139l182 207l-182 206v140l256 -285v-123zM385 236v139l182 207l-182 206v140l256 -285v-123z" />
<glyph unicode="&#xbc;" horiz-adv-x="1476" d="M74 1229v74q229 2 239 147h93v-877h-111v656h-221zM184 -61l924 1548h102l-923 -1548h-103zM780 225v74l361 578h123v-578h110v-74h-110v-225h-103v225h-381zM870 299h291v438h-4z" />
<glyph unicode="&#xbd;" horiz-adv-x="1476" d="M74 1229v74q229 2 239 147h93v-877h-111v656h-221zM123 -61l924 1548h102l-924 -1548h-102zM805 600q4 276 280 277q113 0 184.5 -58.5t71.5 -177.5q0 -84 -30.5 -143.5t-118.5 -124.5l-102 -76q-143 -104 -168 -207h424v-90h-535q0 106 47 183t150 159l100 80 q70 53 96.5 102t26.5 113q0 74 -43 111.5t-111 37.5q-72 0 -114.5 -48t-47.5 -138h-110z" />
<glyph unicode="&#xbe;" horiz-adv-x="1476" d="M41 809h111q2 -61 46 -110.5t117 -49.5q68 0 120 45t52 129q0 76 -51 119t-137 43h-55v90h37q82 0 130 39t48 103q0 61 -39 102t-105 41q-63 0 -107 -41t-46 -111h-111q0 113 66.5 177.5t197.5 64.5q119 0 186.5 -57.5t67.5 -157.5q0 -76 -38.5 -129t-112.5 -70v-4 q84 -10 132 -67.5t48 -139.5q0 -123 -71.5 -194.5t-211.5 -71.5q-264 0 -274 250zM246 -61l923 1548h103l-924 -1548h-102zM780 225v74l361 578h123v-578h110v-74h-110v-225h-103v225h-381zM870 299h291v438h-4z" />
<glyph unicode="&#xbf;" d="M70 -18q0 180 133 321l88 94q63 68 89 127.5t26 149.5v57h122v-72q0 -113 -27.5 -178t-107.5 -149l-86 -92q-106 -115 -106 -260q0 -111 63.5 -182.5t165.5 -71.5q262 0 262 344h131q-2 -201 -99 -324t-286 -123q-170 0 -269 98.5t-99 260.5zM397 901v209h140v-209h-140z " />
<glyph unicode="&#xc0;" horiz-adv-x="1024" d="M-2 0l432 1462h164l432 -1462h-139l-119 426h-512l-119 -426h-139zM285 537h454l-225 823h-4zM301 1821h145l154 -289h-98z" />
<glyph unicode="&#xc1;" horiz-adv-x="1024" d="M-2 0l432 1462h164l432 -1462h-139l-119 426h-512l-119 -426h-139zM285 537h454l-225 823h-4zM424 1532l154 289h145l-201 -289h-98z" />
<glyph unicode="&#xc2;" horiz-adv-x="1024" d="M-2 0l432 1462h164l432 -1462h-139l-119 426h-512l-119 -426h-139zM254 1532l197 289h122l197 -289h-123l-135 205l-135 -205h-123zM285 537h454l-225 823h-4z" />
<glyph unicode="&#xc3;" horiz-adv-x="1024" d="M-2 0l432 1462h164l432 -1462h-139l-119 426h-512l-119 -426h-139zM238 1571q4 72 49 136.5t106 64.5q51 0 117 -37l53 -31q37 -23 62 -23q31 0 52 34t19 65h90q-2 -72 -46 -136.5t-111 -64.5q-47 0 -101 31l-77 43q-33 16 -50 16q-27 0 -47 -29.5t-26 -68.5h-90z M285 537h454l-225 823h-4z" />
<glyph unicode="&#xc4;" horiz-adv-x="1024" d="M-2 0l432 1462h164l432 -1462h-139l-119 426h-512l-119 -426h-139zM285 537h454l-225 823h-4zM297 1575v209h123v-209h-123zM604 1575v209h123v-209h-123z" />
<glyph unicode="&#xc5;" horiz-adv-x="1024" d="M-2 0l432 1462h164l432 -1462h-139l-119 426h-512l-119 -426h-139zM285 537h454l-225 823h-4zM317 1704q0 80 57.5 137t137.5 57t137.5 -57t57.5 -137t-57.5 -137.5t-137.5 -57.5t-137.5 57.5t-57.5 137.5zM391 1704q0 -51 35 -86t86 -35t86 35t35 86t-35 86t-86 35 t-86 -35t-35 -86z" />
<glyph unicode="&#xc6;" horiz-adv-x="1441" d="M-16 0l594 1462h808v-110h-575v-533h537v-110h-537v-598h594v-111h-725v426h-391l-166 -426h-139zM330 537h350v815h-21z" />
<glyph unicode="&#xc7;" horiz-adv-x="1062" d="M102 731q0 756 467 756q211 0 315.5 -128t104.5 -323h-131q0 154 -75.5 247t-213.5 93q-164 0 -250 -151.5t-86 -493.5t86.5 -493.5t249.5 -151.5q135 0 214 108.5t89 301.5h132q-12 -231 -110.5 -365.5t-270.5 -150.5l-72 -95l4 -2q23 10 70 11q66 0 111.5 -40t45.5 -98 q0 -80 -68.5 -127t-148.5 -47q-100 0 -182 41l25 64q61 -31 122 -31q70 0 106 25.5t36 64.5q0 37 -32 55.5t-77 18.5q-57 0 -90 -21l-27 35l101 141q-445 23 -445 756z" />
<glyph unicode="&#xc8;" horiz-adv-x="909" d="M115 0v1462h725v-110h-594v-533h555v-110h-555v-598h612v-111h-743zM281 1821h145l154 -289h-99z" />
<glyph unicode="&#xc9;" horiz-adv-x="909" d="M115 0v1462h725v-110h-594v-533h555v-110h-555v-598h612v-111h-743zM403 1532l154 289h145l-200 -289h-99z" />
<glyph unicode="&#xca;" horiz-adv-x="909" d="M115 0v1462h725v-110h-594v-533h555v-110h-555v-598h612v-111h-743zM233 1532l197 289h123l197 -289h-123l-135 205l-136 -205h-123z" />
<glyph unicode="&#xcb;" horiz-adv-x="909" d="M115 0v1462h725v-110h-594v-533h555v-110h-555v-598h612v-111h-743zM276 1575v209h123v-209h-123zM584 1575v209h123v-209h-123z" />
<glyph unicode="&#xcc;" horiz-adv-x="376" d="M-23 1821h146l153 -289h-98zM123 0v1462h131v-1462h-131z" />
<glyph unicode="&#xcd;" horiz-adv-x="376" d="M100 1532l154 289h145l-200 -289h-99zM123 0v1462h131v-1462h-131z" />
<glyph unicode="&#xce;" horiz-adv-x="376" d="M-70 1532l197 289h123l196 -289h-122l-136 205l-135 -205h-123zM123 0v1462h131v-1462h-131z" />
<glyph unicode="&#xcf;" horiz-adv-x="376" d="M-27 1575v209h123v-209h-123zM123 0v1462h131v-1462h-131zM281 1575v209h122v-209h-122z" />
<glyph unicode="&#xd0;" horiz-adv-x="1099" d="M0 709v110h115v643h352q305 0 417.5 -175t112.5 -556t-112.5 -556t-417.5 -175h-352v709h-115zM246 111h213q221 0 314 135t93 483q0 352 -93 487.5t-314 135.5h-213v-533h327v-110h-327v-598z" />
<glyph unicode="&#xd1;" horiz-adv-x="1099" d="M115 0v1462h176l559 -1274h4v1274h131v-1462h-176l-559 1274h-4v-1274h-131zM276 1571q4 72 49.5 136.5t106.5 64.5q51 0 117 -37l53 -31q37 -23 62 -23q31 0 52 34t19 65h90q-2 -72 -46 -136.5t-111 -64.5q-49 0 -101 31l-78 43q-33 16 -49 16q-27 0 -47 -29.5 t-26 -68.5h-91z" />
<glyph unicode="&#xd2;" horiz-adv-x="1138" d="M102 731q0 756 467 756t467 -756t-467 -756t-467 756zM233 731q0 -342 86.5 -493.5t250 -151.5t249.5 151.5t86 493.5t-86 493.5t-249.5 151.5t-250 -151.5t-86.5 -493.5zM358 1821h146l153 -289h-98z" />
<glyph unicode="&#xd3;" horiz-adv-x="1138" d="M102 731q0 756 467 756t467 -756t-467 -756t-467 756zM233 731q0 -342 86.5 -493.5t250 -151.5t249.5 151.5t86 493.5t-86 493.5t-249.5 151.5t-250 -151.5t-86.5 -493.5zM481 1532l154 289h145l-200 -289h-99z" />
<glyph unicode="&#xd4;" horiz-adv-x="1138" d="M102 731q0 756 467 756t467 -756t-467 -756t-467 756zM233 731q0 -342 86.5 -493.5t250 -151.5t249.5 151.5t86 493.5t-86 493.5t-249.5 151.5t-250 -151.5t-86.5 -493.5zM311 1532l197 289h123l196 -289h-122l-136 205l-135 -205h-123z" />
<glyph unicode="&#xd5;" horiz-adv-x="1138" d="M102 731q0 756 467 756t467 -756t-467 -756t-467 756zM233 731q0 -342 86.5 -493.5t250 -151.5t249.5 151.5t86 493.5t-86 493.5t-249.5 151.5t-250 -151.5t-86.5 -493.5zM295 1571q4 72 49 136.5t107 64.5q51 0 116 -37l54 -31q37 -23 61 -23q31 0 52.5 34t19.5 65h90 q-2 -72 -46 -136.5t-112 -64.5q-47 0 -100 31l-78 43q-33 16 -49 16q-27 0 -47.5 -29.5t-26.5 -68.5h-90z" />
<glyph unicode="&#xd6;" horiz-adv-x="1138" d="M102 731q0 756 467 756t467 -756t-467 -756t-467 756zM233 731q0 -342 86.5 -493.5t250 -151.5t249.5 151.5t86 493.5t-86 493.5t-249.5 151.5t-250 -151.5t-86.5 -493.5zM354 1575v209h123v-209h-123zM662 1575v209h122v-209h-122z" />
<glyph unicode="&#xd7;" horiz-adv-x="1228" d="M152 129l391 389l-391 391l73 72l389 -389l390 389l73 -72l-391 -391l391 -389l-73 -72l-390 389l-389 -389z" />
<glyph unicode="&#xd8;" horiz-adv-x="1138" d="M102 731q0 756 467 756q145 0 242 -70l55 131l76 -28l-68 -162q162 -180 162 -627q0 -756 -467 -756q-141 0 -241 70l-56 -131l-75 33l67 159q-162 179 -162 625zM233 731q0 -332 84 -487l449 1054q-76 78 -197 78q-164 0 -250 -151.5t-86 -493.5zM375 164 q72 -78 194 -78q164 0 250 151.5t86 493.5q0 330 -84 488z" />
<glyph unicode="&#xd9;" horiz-adv-x="1024" d="M94 410v1052h131v-1050q0 -326 287 -326t287 326v1050h131v-1052q0 -225 -105.5 -330t-312.5 -105t-312.5 105t-105.5 330zM301 1821h145l154 -289h-98z" />
<glyph unicode="&#xda;" horiz-adv-x="1024" d="M94 410v1052h131v-1050q0 -326 287 -326t287 326v1050h131v-1052q0 -225 -105.5 -330t-312.5 -105t-312.5 105t-105.5 330zM424 1532l154 289h145l-201 -289h-98z" />
<glyph unicode="&#xdb;" horiz-adv-x="1024" d="M94 410v1052h131v-1050q0 -326 287 -326t287 326v1050h131v-1052q0 -225 -105.5 -330t-312.5 -105t-312.5 105t-105.5 330zM254 1532l197 289h122l197 -289h-123l-135 205l-135 -205h-123z" />
<glyph unicode="&#xdc;" horiz-adv-x="1024" d="M94 410v1052h131v-1050q0 -326 287 -326t287 326v1050h131v-1052q0 -225 -105.5 -330t-312.5 -105t-312.5 105t-105.5 330zM297 1575v209h123v-209h-123zM604 1575v209h123v-209h-123z" />
<glyph unicode="&#xdd;" horiz-adv-x="909" d="M-6 1462h139l322 -729l321 729h139l-395 -876v-586h-131v586zM367 1532l153 289h146l-201 -289h-98z" />
<glyph unicode="&#xde;" horiz-adv-x="983" d="M115 0v1462h131v-286h274q197 0 294 -112t97 -302q0 -186 -105.5 -300t-340.5 -114h-219v-348h-131zM246 459h223q141 0 226 71.5t85 231.5t-85 231.5t-226 71.5h-223v-606z" />
<glyph unicode="&#xdf;" horiz-adv-x="909" d="M106 0v1104q0 182 90.5 278.5t252.5 96.5q154 0 241.5 -89.5t87.5 -248.5q0 -104 -51 -189.5t-162 -107.5v-4q84 -10 143.5 -51t87 -102.5t40 -120t12.5 -124.5q0 -213 -105.5 -333.5t-287.5 -120.5q-53 0 -84 12v102q25 -12 67 -12q123 0 201 91t78 270q0 328 -291 327 h-45v103h35q109 0 170 64.5t61 189.5q0 109 -52 175t-153 66q-213 0 -213 -284v-1092h-123z" />
<glyph unicode="&#xe0;" d="M61 283q0 240 220 301l231 65q66 18 85 49t19 123q0 188 -188 189q-209 0 -209 -246h-123q0 348 336 348q307 0 307 -289v-643q0 -90 64 -90h35v-90q-35 -12 -58 -12q-80 0 -118.5 27.5t-38.5 107.5v37h-5q-63 -184 -280 -185q-139 0 -208 81.5t-69 226.5zM193 291 q0 -96 46 -154.5t126 -58.5q115 0 183 82t68 225v229h-4q-14 -43 -131 -71l-102 -27q-94 -25 -140 -78t-46 -147zM225 1511h146l153 -288h-98z" />
<glyph unicode="&#xe1;" d="M61 283q0 240 220 301l231 65q66 18 85 49t19 123q0 188 -188 189q-209 0 -209 -246h-123q0 348 336 348q307 0 307 -289v-643q0 -90 64 -90h35v-90q-35 -12 -58 -12q-80 0 -118.5 27.5t-38.5 107.5v37h-5q-63 -184 -280 -185q-139 0 -208 81.5t-69 226.5zM193 291 q0 -96 46 -154.5t126 -58.5q115 0 183 82t68 225v229h-4q-14 -43 -131 -71l-102 -27q-94 -25 -140 -78t-46 -147zM348 1223l154 288h145l-201 -288h-98z" />
<glyph unicode="&#xe2;" d="M61 283q0 240 220 301l231 65q66 18 85 49t19 123q0 188 -188 189q-209 0 -209 -246h-123q0 348 336 348q307 0 307 -289v-643q0 -90 64 -90h35v-90q-35 -12 -58 -12q-80 0 -118.5 27.5t-38.5 107.5v37h-5q-63 -184 -280 -185q-139 0 -208 81.5t-69 226.5zM178 1223 l197 288h123l196 -288h-123l-135 204l-135 -204h-123zM193 291q0 -96 46 -154.5t126 -58.5q115 0 183 82t68 225v229h-4q-14 -43 -131 -71l-102 -27q-94 -25 -140 -78t-46 -147z" />
<glyph unicode="&#xe3;" d="M61 283q0 240 220 301l231 65q66 18 85 49t19 123q0 188 -188 189q-209 0 -209 -246h-123q0 348 336 348q307 0 307 -289v-643q0 -90 64 -90h35v-90q-35 -12 -58 -12q-80 0 -118.5 27.5t-38.5 107.5v37h-5q-63 -184 -280 -185q-139 0 -208 81.5t-69 226.5zM162 1262 q4 72 49 136t106 64q51 0 117 -37l53 -30q37 -23 62 -23q31 0 52.5 34t19.5 64h90q-2 -72 -46 -136t-112 -64q-49 0 -100 30l-78 43q-33 16 -49 17q-27 0 -47.5 -30t-26.5 -68h-90zM193 291q0 -96 46 -154.5t126 -58.5q115 0 183 82t68 225v229h-4q-14 -43 -131 -71 l-102 -27q-94 -25 -140 -78t-46 -147z" />
<glyph unicode="&#xe4;" d="M61 283q0 240 220 301l231 65q66 18 85 49t19 123q0 188 -188 189q-209 0 -209 -246h-123q0 348 336 348q307 0 307 -289v-643q0 -90 64 -90h35v-90q-35 -12 -58 -12q-80 0 -118.5 27.5t-38.5 107.5v37h-5q-63 -184 -280 -185q-139 0 -208 81.5t-69 226.5zM193 291 q0 -96 46 -154.5t126 -58.5q115 0 183 82t68 225v229h-4q-14 -43 -131 -71l-102 -27q-94 -25 -140 -78t-46 -147zM221 1266v209h123v-209h-123zM528 1266v209h123v-209h-123z" />
<glyph unicode="&#xe5;" d="M61 283q0 240 220 301l231 65q66 18 85 49t19 123q0 188 -188 189q-209 0 -209 -246h-123q0 348 336 348q307 0 307 -289v-643q0 -90 64 -90h35v-90q-35 -12 -58 -12q-80 0 -118.5 27.5t-38.5 107.5v37h-5q-63 -184 -280 -185q-139 0 -208 81.5t-69 226.5zM193 291 q0 -96 46 -154.5t126 -58.5q115 0 183 82t68 225v229h-4q-14 -43 -131 -71l-102 -27q-94 -25 -140 -78t-46 -147zM242 1395q0 80 57 137t137 57t137.5 -57t57.5 -137t-57.5 -137.5t-137.5 -57.5t-137 57.5t-57 137.5zM315 1394.5q0 -51.5 35 -86t86 -34.5t86 34.5t35 86 t-35 86.5t-86 35t-86 -35t-35 -86.5z" />
<glyph unicode="&#xe6;" horiz-adv-x="1327" d="M61 283q0 135 60.5 203.5t208.5 107.5l147 39q61 18 83 49t22 111q0 117 -39 167t-129 50q-195 0 -195 -246h-123q0 170 81 259t241 89q98 0 167.5 -44t90.5 -132h4q27 84 97.5 130t156.5 46q180 0 256 -137t76 -436h-561v-60q0 -199 58 -300t155 -101q90 0 151 80 t64 202h122q-10 -184 -98 -284.5t-235 -100.5q-209 0 -281 226h-4q-61 -225 -299 -226q-139 0 -208 81.5t-69 226.5zM193 291q0 -96 46 -154.5t126 -58.5q84 0 150.5 70.5t66.5 209.5v228h-4q-18 -27 -93 -45l-127 -35q-92 -25 -128.5 -75t-36.5 -140zM705 641h430 q-2 369 -215 369q-209 0 -215 -369z" />
<glyph unicode="&#xe7;" horiz-adv-x="833" d="M61 545q0 281 96.5 424t278.5 143q154 0 240 -90t96 -258h-123q-10 127 -62 186.5t-151 59.5q-115 0 -179 -100.5t-64 -366.5q0 -119 13 -206t34.5 -135t53.5 -78t61.5 -38t68.5 -8q195 0 225 282h123q-12 -156 -86 -257t-194 -123l-74 -95l4 -2q23 10 70 11 q66 0 111.5 -40t45.5 -98q0 -80 -68.5 -127t-148.5 -47q-100 0 -182 41l24 64q61 -31 123 -31q70 0 106 25.5t36 64.5q0 37 -32 55.5t-77 18.5q-57 0 -90 -21l-27 35l101 141q-353 11 -353 570z" />
<glyph unicode="&#xe8;" d="M74 545q0 281 96 424t279 143q180 0 265 -128t85 -400v-45h-594v-52q0 -219 64.5 -314t166.5 -95q199 0 230 282h122q-14 -176 -106 -280.5t-244 -104.5q-364 1 -364 570zM205 641h463q-2 199 -58.5 284t-173.5 85t-173 -85t-58 -284zM236 1511h145l154 -288h-99z" />
<glyph unicode="&#xe9;" d="M74 545q0 281 96 424t279 143q180 0 265 -128t85 -400v-45h-594v-52q0 -219 64.5 -314t166.5 -95q199 0 230 282h122q-14 -176 -106 -280.5t-244 -104.5q-364 1 -364 570zM205 641h463q-2 199 -58.5 284t-173.5 85t-173 -85t-58 -284zM358 1223l154 288h145l-200 -288 h-99z" />
<glyph unicode="&#xea;" d="M74 545q0 281 96 424t279 143q180 0 265 -128t85 -400v-45h-594v-52q0 -219 64.5 -314t166.5 -95q199 0 230 282h122q-14 -176 -106 -280.5t-244 -104.5q-364 1 -364 570zM188 1223l197 288h123l197 -288h-123l-136 204l-135 -204h-123zM205 641h463q-2 199 -58.5 284 t-173.5 85t-173 -85t-58 -284z" />
<glyph unicode="&#xeb;" d="M74 545q0 281 96 424t279 143q180 0 265 -128t85 -400v-45h-594v-52q0 -219 64.5 -314t166.5 -95q199 0 230 282h122q-14 -176 -106 -280.5t-244 -104.5q-364 1 -364 570zM205 641h463q-2 199 -58.5 284t-173.5 85t-173 -85t-58 -284zM231 1266v209h123v-209h-123z M539 1266v209h123v-209h-123z" />
<glyph unicode="&#xec;" horiz-adv-x="376" d="M-23 1511h146l153 -288h-98zM127 0v1087h123v-1087h-123z" />
<glyph unicode="&#xed;" horiz-adv-x="376" d="M100 1223l154 288h145l-200 -288h-99zM127 0v1087h123v-1087h-123z" />
<glyph unicode="&#xee;" horiz-adv-x="376" d="M-70 1223l197 288h123l196 -288h-122l-136 204l-135 -204h-123zM127 0v1087h123v-1087h-123z" />
<glyph unicode="&#xef;" horiz-adv-x="376" d="M-27 1266v209h123v-209h-123zM127 0v1087h123v-1087h-123zM281 1266v209h122v-209h-122z" />
<glyph unicode="&#xf0;" d="M61 532q0 266 96.5 410.5t256.5 144.5q125 0 200 -108l4 4q-106 182 -235 326l-141 -84l-78 65l151 90q-51 57 -149 140l96 65q92 -78 156 -147l147 86l74 -62l-154 -92q326 -354 326 -825q0 -281 -96.5 -425.5t-278.5 -144.5q-180 0 -277.5 142.5t-97.5 414.5zM193 532 q0 -455 243.5 -454.5t243.5 454.5q0 238 -66.5 345.5t-177 107.5t-177 -107.5t-66.5 -345.5z" />
<glyph unicode="&#xf1;" horiz-adv-x="909" d="M119 0v1087h110v-151h4q90 176 279 176q131 0 205 -71.5t74 -219.5v-821h-123v786q0 223 -187 224q-109 0 -174 -77t-65 -202v-731h-123zM180 1262q4 72 49 136t107 64q51 0 117 -37l53 -30q37 -23 61 -23q31 0 52.5 34t19.5 64h90q-2 -72 -46 -136t-112 -64 q-47 0 -100 30l-78 43q-33 16 -49 17q-27 0 -47.5 -30t-26.5 -68h-90z" />
<glyph unicode="&#xf2;" d="M61 544.5q0 280.5 96.5 424t278.5 143.5t278.5 -143.5t96.5 -424t-96.5 -425t-278.5 -144.5t-278.5 144.5t-96.5 425zM193 545q0 -467 243.5 -467t243.5 467q0 465 -243.5 465t-243.5 -465zM225 1511h146l153 -288h-98z" />
<glyph unicode="&#xf3;" d="M61 544.5q0 280.5 96.5 424t278.5 143.5t278.5 -143.5t96.5 -424t-96.5 -425t-278.5 -144.5t-278.5 144.5t-96.5 425zM193 545q0 -467 243.5 -467t243.5 467q0 465 -243.5 465t-243.5 -465zM348 1223l154 288h145l-201 -288h-98z" />
<glyph unicode="&#xf4;" d="M61 544.5q0 280.5 96.5 424t278.5 143.5t278.5 -143.5t96.5 -424t-96.5 -425t-278.5 -144.5t-278.5 144.5t-96.5 425zM178 1223l197 288h123l196 -288h-123l-135 204l-135 -204h-123zM193 545q0 -467 243.5 -467t243.5 467q0 465 -243.5 465t-243.5 -465z" />
<glyph unicode="&#xf5;" d="M61 544.5q0 280.5 96.5 424t278.5 143.5t278.5 -143.5t96.5 -424t-96.5 -425t-278.5 -144.5t-278.5 144.5t-96.5 425zM162 1262q4 72 49 136t106 64q51 0 117 -37l53 -30q37 -23 62 -23q31 0 52.5 34t19.5 64h90q-2 -72 -46 -136t-112 -64q-49 0 -100 30l-78 43 q-33 16 -49 17q-27 0 -47.5 -30t-26.5 -68h-90zM193 545q0 -467 243.5 -467t243.5 467q0 465 -243.5 465t-243.5 -465z" />
<glyph unicode="&#xf6;" d="M61 544.5q0 280.5 96.5 424t278.5 143.5t278.5 -143.5t96.5 -424t-96.5 -425t-278.5 -144.5t-278.5 144.5t-96.5 425zM193 545q0 -467 243.5 -467t243.5 467q0 465 -243.5 465t-243.5 -465zM221 1266v209h123v-209h-123zM528 1266v209h123v-209h-123z" />
<glyph unicode="&#xf7;" horiz-adv-x="1228" d="M96 467v102h1037v-102h-1037zM502 96q0 47 33.5 80t78.5 33t79 -33t34 -80t-34 -79.5t-79 -32.5t-78.5 32.5t-33.5 79.5zM502 940q0 47 33.5 80t78.5 33t79 -33t34 -80t-34 -80t-79 -33t-78.5 33t-33.5 80z" />
<glyph unicode="&#xf8;" d="M61 545q0 281 96.5 424t278.5 143q102 0 174 -45l56 133l77 -33l-65 -153q133 -139 133 -469q0 -281 -96.5 -425.5t-278.5 -144.5q-104 0 -174 48l-57 -136l-76 31l66 156q-134 139 -134 471zM193 545q0 -223 57 -338l315 754q-51 49 -129 49q-243 0 -243 -465zM307 129 q51 -51 129 -51q244 0 244 467q0 225 -57 336z" />
<glyph unicode="&#xf9;" horiz-adv-x="909" d="M119 266v821h123v-765q0 -131 45 -187.5t143 -56.5q104 0 171 76.5t67 201.5v731h123v-1087h-111v152h-4q-90 -176 -279 -177q-131 0 -204.5 72t-73.5 219zM244 1511h145l154 -288h-99z" />
<glyph unicode="&#xfa;" horiz-adv-x="909" d="M119 266v821h123v-765q0 -131 45 -187.5t143 -56.5q104 0 171 76.5t67 201.5v731h123v-1087h-111v152h-4q-90 -176 -279 -177q-131 0 -204.5 72t-73.5 219zM367 1223l153 288h146l-201 -288h-98z" />
<glyph unicode="&#xfb;" horiz-adv-x="909" d="M119 266v821h123v-765q0 -131 45 -187.5t143 -56.5q104 0 171 76.5t67 201.5v731h123v-1087h-111v152h-4q-90 -176 -279 -177q-131 0 -204.5 72t-73.5 219zM197 1223l196 288h123l197 -288h-123l-135 204l-136 -204h-122z" />
<glyph unicode="&#xfc;" horiz-adv-x="909" d="M119 266v821h123v-765q0 -131 45 -187.5t143 -56.5q104 0 171 76.5t67 201.5v731h123v-1087h-111v152h-4q-90 -176 -279 -177q-131 0 -204.5 72t-73.5 219zM240 1266v209h122v-209h-122zM547 1266v209h123v-209h-123z" />
<glyph unicode="&#xfd;" horiz-adv-x="757" d="M14 1087h131l244 -942h4l219 942h131l-317 -1175q-43 -160 -103.5 -216t-185.5 -56q-33 0 -82 4v102q53 -4 80 -4q59 0 98 31.5t64 113.5l31 103zM291 1223l153 288h146l-201 -288h-98z" />
<glyph unicode="&#xfe;" horiz-adv-x="909" d="M106 -360v1822h123v-555h4q25 92 95.5 148.5t158.5 56.5q348 0 349 -569q0 -567 -349 -568q-100 0 -166.5 50.5t-87.5 138.5h-4v-524h-123zM229 542.5q0 -145.5 18.5 -241.5t54.5 -142t74 -63.5t91 -17.5q51 0 90 17.5t75 63.5t54.5 143t18.5 241q0 145 -18.5 242.5 t-55.5 143.5t-75 63.5t-89 17.5q-53 0 -91 -17.5t-74 -63.5t-54.5 -143.5t-18.5 -243z" />
<glyph unicode="&#xff;" horiz-adv-x="757" d="M14 1087h131l244 -942h4l219 942h131l-317 -1175q-43 -160 -103.5 -216t-185.5 -56q-33 0 -82 4v102q53 -4 80 -4q59 0 98 31.5t64 113.5l31 103zM164 1266v209h123v-209h-123zM471 1266v209h123v-209h-123z" />
<glyph unicode="&#x131;" horiz-adv-x="376" d="M127 0v1087h123v-1087h-123z" />
<glyph unicode="&#x141;" d="M-29 487v123l144 99v753h131v-663l381 260v-123l-381 -260v-565h606v-111h-737v586z" />
<glyph unicode="&#x142;" horiz-adv-x="376" d="M0 512v123l127 135v692h123v-561l127 135v-123l-127 -135v-778h-123v647z" />
<glyph unicode="&#x152;" horiz-adv-x="1593" d="M86 731q0 756 467 756q205 0 283 -144h4v119h694v-110h-563v-533h524v-110h-524v-598h581v-111h-712v131h-4q-63 -156 -283 -156q-467 0 -467 756zM217 731q0 -342 86 -493.5t250 -151.5q152 0 219.5 92t67.5 307v521q0 209 -66.5 289.5t-220.5 80.5q-164 0 -250 -151.5 t-86 -493.5z" />
<glyph unicode="&#x153;" horiz-adv-x="1441" d="M78 544.5q0 280.5 96 424t279 143.5q109 0 185.5 -57.5t106.5 -169.5h5q59 227 282 227q180 0 256 -137t76 -436h-561v-60q0 -199 58.5 -300t154.5 -101q90 0 151.5 80t63.5 202h123q-10 -184 -98.5 -284.5t-235.5 -100.5q-205 0 -283 226h-4q-31 -109 -103.5 -167.5 t-176.5 -58.5q-182 0 -278.5 144.5t-96.5 425zM209 545q0 -246 64.5 -356.5t171 -110.5t171 110.5t64.5 356.5q0 244 -64.5 354.5t-171 110.5t-171 -110.5t-64.5 -354.5zM803 641h430q-2 369 -215 369q-209 0 -215 -369z" />
<glyph unicode="&#x160;" horiz-adv-x="983" d="M57 410v43h131v-56q0 -143 75 -227t216 -84q145 0 230.5 75t85.5 222q0 88 -39 148.5t-101.5 92t-138.5 56.5t-151.5 52.5t-138 68.5t-101.5 116.5t-39 182.5q0 174 107.5 280.5t295.5 106.5q397 0 398 -400h-131q0 137 -65.5 213t-196.5 76q-129 0 -203 -74.5 t-74 -187.5q0 -78 31 -135t80 -88t113.5 -58.5t130 -45t130 -48t113.5 -68.5t80 -106.5t31 -161.5q0 -207 -119 -317.5t-324 -110.5q-207 0 -316.5 111t-109.5 324zM231 1821h123l138 -207l137 207h123l-201 -289h-123z" />
<glyph unicode="&#x161;" horiz-adv-x="796" d="M63 313v35h123v-29q0 -242 209 -241q98 0 156.5 52t58.5 142q0 74 -33.5 122t-113.5 79l-172 68q-209 80 -209 258q0 160 88 236.5t236 76.5q299 0 299 -303v-31h-123v31q0 201 -179 201q-199 0 -198 -185q0 -63 30.5 -106t116.5 -76l178 -68q203 -76 203 -276 q0 -145 -85 -234.5t-251 -89.5q-172 0 -253 79t-81 259zM139 1511h123l137 -206l138 206h122l-200 -288h-123z" />
<glyph unicode="&#x178;" horiz-adv-x="909" d="M-6 1462h139l322 -729l321 729h139l-395 -876v-586h-131v586zM240 1575v209h122v-209h-122zM547 1575v209h123v-209h-123z" />
<glyph unicode="&#x17d;" horiz-adv-x="946" d="M45 0v123l713 1229h-672v110h805v-123l-701 -1228h711v-111h-856zM213 1821h123l137 -207l137 207h123l-201 -289h-122z" />
<glyph unicode="&#x17e;" horiz-adv-x="720" d="M37 0v102l516 883h-490v102h621v-102l-516 -883h516v-102h-647zM100 1511h123l137 -206l138 206h123l-201 -288h-123z" />
<glyph unicode="&#x192;" horiz-adv-x="983" d="M-27 -346l23 102q33 -14 67 -14q104 0 150.5 58.5t87.5 273.5l143 739h-215l17 90h215l53 266q57 293 328 293q27 0 96 -8l-23 -102q-37 8 -55 8q-104 0 -158.5 -55.5t-89.5 -247.5l-28 -154h229l-16 -90h-230l-149 -782q-43 -219 -115 -305t-221 -86q-72 0 -109 14z" />
<glyph unicode="&#x2c6;" horiz-adv-x="380" d="M-68 1223l197 288h123l197 -288h-123l-136 204l-135 -204h-123z" />
<glyph unicode="&#x2c7;" horiz-adv-x="380" d="M-70 1511h123l137 -206l138 206h123l-201 -288h-123z" />
<glyph unicode="&#x2c9;" horiz-adv-x="380" d="M-53 1323v90h487v-90h-487z" />
<glyph unicode="&#x2d8;" horiz-adv-x="380" d="M-57 1487h90q8 -70 53 -119q41 -41 104.5 -41t106.5 42t51 118h90q-8 -115 -75.5 -182.5t-172 -67.5t-172 67.5t-75.5 182.5z" />
<glyph unicode="&#x2d9;" horiz-adv-x="380" d="M129 1266v209h123v-209h-123z" />
<glyph unicode="&#x2da;" horiz-adv-x="380" d="M-4 1395q0 80 57.5 137t137 57t137 -57t57.5 -137t-57.5 -137.5t-137 -57.5t-137 57.5t-57.5 137.5zM70 1394.5q0 -51.5 34.5 -86t86 -34.5t86 34.5t34.5 86t-34.5 86.5t-86 35t-86 -35t-34.5 -86.5z" />
<glyph unicode="&#x2db;" horiz-adv-x="380" d="M27 -270q0 82 54 158.5t157 123.5h96q-197 -133 -197 -260q0 -96 113 -96q55 0 121 39l26 -60q-78 -53 -188 -53q-94 0 -138 42.5t-44 105.5z" />
<glyph unicode="&#x2dc;" horiz-adv-x="380" d="M-84 1262q4 72 49 136t107 64q51 0 116 -37l54 -30q37 -23 61 -23q31 0 52.5 34t19.5 64h90q-2 -72 -46 -136t-112 -64q-49 0 -100 30l-78 43q-33 16 -49 17q-27 0 -47.5 -30t-26.5 -68h-90z" />
<glyph unicode="&#x2dd;" horiz-adv-x="380" d="M-51 1223l151 288h146l-201 -288h-96zM258 1223l152 288h145l-201 -288h-96z" />
<glyph unicode="&#x3a9;" horiz-adv-x="1273" d="M94 0v100h271v6q-109 113 -178.5 283t-69.5 375q0 307 149.5 493.5t376.5 186.5t368.5 -192.5t141.5 -479.5q0 -213 -71.5 -388t-176.5 -278v-6h273v-100h-414v74q115 96 194.5 275t79.5 399q0 141 -42 273t-135 226t-220 94q-184 0 -297 -168.5t-113 -424.5 q0 -211 82 -398.5t195 -275.5v-74h-414z" />
<glyph unicode="&#x3bc;" horiz-adv-x="909" d="M119 -360v1447h123v-765q0 -131 45 -187.5t143 -56.5q104 0 171 76.5t67 201.5v731h123v-1087h-111v152h-4q-90 -176 -279 -177q-119 0 -151 50h-4v-385h-123z" />
<glyph unicode="&#x3c0;" horiz-adv-x="1005" d="M23 1006q74 49 247 49h695l-13 -103h-145v-663q0 -197 27 -289h-109q-31 57 -31 276v676h-338q-8 -231 -47 -524t-88 -428h-110q51 156 89 437.5t44 514.5q-141 0 -201 -24z" />
<glyph unicode="&#x2000;" horiz-adv-x="948" />
<glyph unicode="&#x2001;" horiz-adv-x="1898" />
<glyph unicode="&#x2002;" horiz-adv-x="948" />
<glyph unicode="&#x2003;" horiz-adv-x="1898" />
<glyph unicode="&#x2004;" horiz-adv-x="632" />
<glyph unicode="&#x2005;" horiz-adv-x="473" />
<glyph unicode="&#x2006;" horiz-adv-x="315" />
<glyph unicode="&#x2007;" horiz-adv-x="315" />
<glyph unicode="&#x2008;" horiz-adv-x="235" />
<glyph unicode="&#x2009;" horiz-adv-x="378" />
<glyph unicode="&#x200a;" horiz-adv-x="104" />
<glyph unicode="&#x2010;" horiz-adv-x="681" d="M119 526v111h444v-111h-444z" />
<glyph unicode="&#x2011;" horiz-adv-x="681" d="M119 526v111h444v-111h-444z" />
<glyph unicode="&#x2012;" horiz-adv-x="681" d="M119 526v111h444v-111h-444z" />
<glyph unicode="&#x2013;" horiz-adv-x="1024" d="M0 526v111h1024v-111h-1024z" />
<glyph unicode="&#x2014;" horiz-adv-x="2048" d="M0 526v111h2048v-111h-2048z" />
<glyph unicode="&#x2018;" horiz-adv-x="491" d="M170 971v209q0 227 152 282v-82q-70 -43 -72 -200h59v-209h-139z" />
<glyph unicode="&#x2019;" horiz-adv-x="491" d="M170 971v82q70 43 72 200h-60v209h140v-209q0 -227 -152 -282z" />
<glyph unicode="&#x201a;" horiz-adv-x="491" d="M170 -201q70 43 72 201h-60v209h140v-209q0 -227 -152 -283v82z" />
<glyph unicode="&#x201c;" horiz-adv-x="720" d="M150 971v209q0 227 151 282v-82q-70 -43 -72 -200h60v-209h-139zM420 971v209q0 227 151 282v-82q-70 -43 -71 -200h59v-209h-139z" />
<glyph unicode="&#x201d;" horiz-adv-x="720" d="M150 971v82q70 43 71 200h-59v209h139v-209q1 -227 -151 -282zM420 971v82q70 43 72 200h-60v209h139v-209q1 -227 -151 -282z" />
<glyph unicode="&#x201e;" horiz-adv-x="720" d="M150 -201q70 43 71 201h-59v209h139v-209q0 -227 -151 -283v82zM420 -201q70 43 72 201h-60v209h139v-209q0 -227 -151 -283v82z" />
<glyph unicode="&#x2020;" horiz-adv-x="983" d="M70 901v103h360v458h123v-458h360v-103h-360v-1198h-123v1198h-360z" />
<glyph unicode="&#x2021;" horiz-adv-x="983" d="M70 125v102h360v711h-360v102h360v422h123v-422h360v-102h-360v-711h360v-102h-360v-422h-123v422h-360z" />
<glyph unicode="&#x2022;" horiz-adv-x="1024" d="M147 731.5q0 149.5 106.5 257t258.5 107.5t258.5 -107.5t106.5 -257t-106.5 -257t-258.5 -107.5t-258.5 107.5t-106.5 257z" />
<glyph unicode="&#x2026;" horiz-adv-x="2048" d="M272 0v209h140v-209h-140zM954 0v209h140v-209h-140zM1636 0v209h140v-209h-140z" />
<glyph unicode="&#x202f;" horiz-adv-x="378" />
<glyph unicode="&#x2030;" horiz-adv-x="2048" d="M109 1073q0 213 63.5 295t194.5 82t194.5 -82t63.5 -295t-63.5 -295t-194.5 -82t-194.5 82t-63.5 295zM219 1073q0 -287 147.5 -287t147.5 287t-147.5 287t-147.5 -287zM354 -25l629 1475h102l-628 -1475h-103zM807 352q0 213 63.5 295t194.5 82t194.5 -82t63.5 -295 t-63.5 -295t-194.5 -82t-194.5 82t-63.5 295zM918 352.5q0 -286.5 147 -286.5t147 286.5t-147 286.5t-147 -286.5zM1423 352q0 213 63.5 295t194.5 82t194.5 -82t63.5 -295t-63.5 -295t-194.5 -82t-194.5 82t-63.5 295zM1534 352.5q0 -286.5 147.5 -286.5t147.5 286.5 t-147.5 286.5t-147.5 -286.5z" />
<glyph unicode="&#x2039;" horiz-adv-x="493" d="M119 520v123l256 285v-140l-182 -206l182 -207v-139z" />
<glyph unicode="&#x203a;" horiz-adv-x="493" d="M119 236v139l182 207l-182 206v140l256 -285v-123z" />
<glyph unicode="&#x2044;" horiz-adv-x="342" d="M-342 -61l924 1548h102l-924 -1548h-102z" />
<glyph unicode="&#x205f;" horiz-adv-x="473" />
<glyph unicode="&#x20ac;" horiz-adv-x="983" d="M29 569l37 111h100v65q0 43 2 66h-139l37 111h110q59 532 486 532q147 0 315 -92l-49 -113q-158 96 -275 97q-88 0 -152.5 -36t-100 -100.5t-54 -132t-29.5 -155.5h527l-37 -111h-498q-2 -23 -2 -66v-65h469l-39 -111h-428q6 -78 15.5 -138t33 -130t59.5 -116t96 -76.5 t140 -30.5q82 0 141.5 31.5t139.5 99.5v-150q-123 -84 -283 -84q-133 0 -227 46.5t-145.5 134.5t-75 185t-33.5 228h-141z" />
<glyph unicode="&#x2113;" horiz-adv-x="862" d="M57 387q18 16 49 45t54.5 51.5t42.5 42.5v568q0 252 77.5 362.5t188.5 110.5q102 0 157.5 -86t55.5 -228q0 -348 -371 -749v-70q0 -184 56.5 -269t148.5 -85q145 0 244 182l57 -47q-115 -229 -321 -229q-150 0 -219.5 108.5t-73.5 288.5v29q-61 -53 -105 -95zM311 631 q291 350 291 620q0 221 -135 222q-63 0 -109.5 -90.5t-46.5 -280.5v-471z" />
<glyph unicode="&#x2122;" horiz-adv-x="2027" d="M86 1372v90h655v-90h-276v-754h-103v754h-276zM893 618v844h176l270 -684l263 684h176v-844h-103v754h-4l-305 -754h-61l-306 754h-4v-754h-102z" />
<glyph unicode="&#x2126;" horiz-adv-x="1273" d="M94 0v100h271v6q-109 113 -178.5 283t-69.5 375q0 307 149.5 493.5t376.5 186.5t368.5 -192.5t141.5 -479.5q0 -213 -71.5 -388t-176.5 -278v-6h273v-100h-414v74q115 96 194.5 275t79.5 399q0 141 -42 273t-135 226t-220 94q-184 0 -297 -168.5t-113 -424.5 q0 -211 82 -398.5t195 -275.5v-74h-414z" />
<glyph unicode="&#x212e;" horiz-adv-x="1777" d="M70 713q0 305 239.5 521t577.5 216q340 0 579.5 -216t239.5 -521v-21h-1325q-10 0 -10 -8v-401q0 -25 16 -47q211 -217 502 -218q154 0 291 66t237 178h117q-111 -131 -282 -208t-365 -77q-338 0 -577.5 215.5t-239.5 520.5zM371 743q0 -12 10 -12h1016q8 0 8 12v406 q0 29 -19 47q-213 209 -497 209q-289 0 -500 -215q-18 -23 -18 -51v-396z" />
<glyph unicode="&#x2202;" horiz-adv-x="968" d="M82 446q0 229 114.5 375t270.5 146q109 0 186.5 -58.5t108.5 -122.5h2q2 23 2 86q0 274 -100.5 447.5t-243.5 173.5q-133 0 -238 -96l-43 88q125 109 291 108q184 0 314.5 -192.5t130.5 -571.5q0 -387 -119 -615t-340 -228q-160 0 -248 130.5t-88 329.5zM195 449 q0 -166 62 -265.5t169 -99.5h2q129 0 216 163t106 402q-27 84 -98.5 151.5t-170.5 67.5q-117 0 -201.5 -123.5t-84.5 -295.5z" />
<glyph unicode="&#x2206;" horiz-adv-x="1146" d="M61 0v84l453 1374h127l446 -1372v-86h-1026zM174 96h793l-273 834q-12 39 -59 177t-60 193h-8q-8 -49 -51 -175t-55 -169z" />
<glyph unicode="&#x220f;" horiz-adv-x="1239" d="M49 1313v108h1139v-108h-195v-1510h-110v1510h-529v-1510h-110v1510h-195z" />
<glyph unicode="&#x2211;" horiz-adv-x="993" d="M43 -115l498 725l-473 727v84h850v-102h-695v-6l447 -686l-484 -703v-8h764v-113h-907v82z" />
<glyph unicode="&#x2212;" horiz-adv-x="1228" d="M96 467v102h1037v-102h-1037z" />
<glyph unicode="&#x2215;" horiz-adv-x="342" d="M-342 -61l924 1548h102l-924 -1548h-102z" />
<glyph unicode="&#x2219;" horiz-adv-x="491" d="M133 672q0 45 34 78.5t79 33.5t78.5 -33.5t33.5 -78.5t-33.5 -79t-78.5 -34t-79 34t-34 79z" />
<glyph unicode="&#x221a;" horiz-adv-x="1034" d="M63 678l236 88l240 -766q29 -139 30 -150h2q2 14 23 146l342 1692h88l-399 -1999h-105l-297 962l-135 -49z" />
<glyph unicode="&#x221e;" horiz-adv-x="1445" d="M94 586q0 125 82 208t207 83q96 0 177 -59.5t171 -168.5q72 80 105.5 115t104.5 74t142 39q121 0 195 -79t74 -204v-2q0 -127 -84 -209t-199 -82q-84 0 -161 52.5t-183 170.5q-63 -72 -104 -110.5t-110 -75.5t-140 -37q-115 0 -196 83t-81 202zM180 584 q0 -88 55.5 -146.5t145.5 -58.5h2q29 0 60.5 11t52 22.5t53.5 39t45 40t46 49.5t40 43q-59 74 -91 107.5t-94.5 71.5t-125.5 38q-88 0 -139.5 -63.5t-49.5 -153.5zM774 590q78 -84 115 -119t88 -63.5t100 -28.5q86 0 138.5 62.5t52.5 144.5q0 100 -54.5 157.5t-138.5 57.5 h-2q-37 0 -72.5 -14.5t-70.5 -42t-57.5 -49t-56.5 -59.5t-42 -46z" />
<glyph unicode="&#x222b;" horiz-adv-x="647" d="M27 -289l24 86q47 -20 80 -20q53 0 88 49q63 94 64 358q0 164 -11.5 528.5t-11.5 520.5q0 313 94 422q66 76 166 76q53 0 94 -27l-22 -82q-29 18 -66 18q-59 0 -94 -49q-63 -82 -63 -368q0 -158 11 -517.5t11 -521.5q0 -289 -84 -413q-55 -90 -170 -90q-67 -1 -110 30z " />
<glyph unicode="&#x2248;" horiz-adv-x="1026" d="M84 356q86 180 248 181q31 0 64.5 -9.5t53 -18.5t51 -27.5t40.5 -22.5q4 -2 24.5 -14.5t25.5 -14.5t21.5 -11t25.5 -11t23.5 -7.5t26.5 -6.5t27 -1q94 0 172 142l53 -41q-86 -178 -233 -179q-35 0 -71 10.5t-61.5 23.5t-80.5 44q-113 66 -172 66q-100 0 -183 -144z M84 666q84 178 248 178q31 0 65.5 -10.5t51 -17.5t55.5 -30l37 -20q6 -2 25.5 -13.5t24.5 -15.5t21.5 -12t24.5 -10t22.5 -7.5t26.5 -6.5t27 -1q55 0 94 35t80 109l53 -41q-82 -180 -233 -180q-49 0 -92.5 17t-120.5 62q-109 63 -175 64q-98 0 -180 -141z" />
<glyph unicode="&#x2260;" horiz-adv-x="1026" d="M94 360v80h312l122 275h-434v82h467l96 213l66 -29l-84 -184h289v-82h-322l-125 -275h447v-80h-479l-99 -217l-63 29l84 188h-277z" />
<glyph unicode="&#x2264;" horiz-adv-x="1026" d="M96 51v84h834v-84h-834zM104 647v82l820 430v-100l-729 -367v-4l729 -371v-100z" />
<glyph unicode="&#x2265;" horiz-adv-x="1026" d="M96 51v84h832v-84h-832zM106 217v100l730 369v4l-730 369v100l820 -430v-82z" />
<glyph unicode="&#x25ca;" horiz-adv-x="1036" d="M102 711l369 788h96l365 -788l-369 -789h-94zM209 713l274 -582q23 -57 31 -104h8q8 51 31 102l272 578l-272 579q-12 29 -35 107h-4q-16 -66 -35 -107z" />
<glyph unicode="&#xe000;" horiz-adv-x="1085" d="M0 1085h1085v-1085h-1085v1085z" />
<glyph unicode="&#xfb01;" d="M14 985v102h150v130q0 129 47 195.5t190 66.5q45 0 78 -6v-103q-29 6 -59 6q-70 0 -101.5 -34.5t-31.5 -124.5v-130h192v-102h-192v-985h-123v985h-150zM623 0v1087h122v-1087h-122zM623 1253v209h122v-209h-122z" />
<glyph unicode="&#xfb02;" d="M14 985v102h150v130q0 129 47 195.5t190 66.5q45 0 78 -6v-103q-29 6 -59 6q-70 0 -101.5 -34.5t-31.5 -124.5v-130h192v-102h-192v-985h-123v985h-150zM623 0v1462h122v-1462h-122z" />
<glyph horiz-adv-x="567" d="M10 944q0 154 162 195l152 39q41 10 54 27.5t13 62.5t-33.5 68.5t-89.5 23.5q-68 0 -101.5 -35t-33.5 -92h-102q0 109 56 163t183 54q223 0 224 -174v-379q0 -55 41 -55h22v-78q-29 -12 -70 -12q-92 0 -92 82v28h-4q-39 -111 -182 -110q-96 0 -147.5 54t-51.5 138z M121 956q0 -49 29.5 -81.5t76.5 -32.5q74 0 119 48t45 132v106h-4q-8 -23 -84 -43l-67 -16q-115 -29 -115 -113z" />
<glyph horiz-adv-x="567" d="M18 1102q0 348 265 348q266 0 266 -348q0 -350 -266 -350q-265 0 -265 350zM129 1102q0 -133 43 -196.5t111 -63.5q70 0 112.5 63.5t42.5 196.5t-43 195.5t-112 62.5q-68 0 -111 -63.5t-43 -194.5z" />
<glyph horiz-adv-x="638" d="M74 1229v74q229 2 239 147h93v-877h-111v656h-221z" />
<glyph horiz-adv-x="638" d="M49 1174q4 276 281 276q113 0 184.5 -58.5t71.5 -177.5q0 -84 -31 -143t-119 -125l-102 -76q-143 -104 -168 -206h424v-91h-535q0 106 47.5 183.5t149.5 158.5l100 80q70 53 96.5 102.5t26.5 112.5q0 74 -43 112t-110 38q-72 0 -115 -48t-47 -138h-111z" />
<glyph horiz-adv-x="638" d="M41 809h111q2 -61 46 -110.5t117 -49.5q68 0 120 45t52 129q0 76 -51 119t-137 43h-55v90h37q82 0 130 39t48 103q0 61 -39 102t-105 41q-63 0 -107 -41t-46 -111h-111q0 113 66.5 177.5t197.5 64.5q119 0 186.5 -57.5t67.5 -157.5q0 -76 -38.5 -129t-112.5 -70v-4 q84 -10 132 -67.5t48 -139.5q0 -123 -71.5 -194.5t-211.5 -71.5q-264 0 -274 250z" />
</font>
</defs>
</svg>
